Моя Фамилия Шилов Скачать

Оригинальное название: Моя фамилия Шилов Год: Жанр:, Режиссер: Андрей Элинсон В ролях: Александр Устюгов, Сергей Перегудов, Мария Синяева, Геннадий Алимпиев, Алексей Федотов, Светлана Смирнова Описание: После увольнения из ГУВД Роман Шилов решает уделить время своей личной жизни. Но встрече с Максаковой, с которой он давно мечтал объясниться, мешает звонок от жены Михаила Краснова, показания которого когда-то помоги посадить за решётку опасного убийцу. Надя Краснова в слезах сообщает Шилову, что Михаила похитили неизвестные.

Бросившись на выручку старого приятеля, Шилов попадает в криминальный водоворот, разрушивший спокойную жизнь провинциального городка, в котором Красновы владели автомастерской. Местный вор в законе по прозвищу Профессор ищет пропавший воровской «общак» и обвиняет в его исчезновении Краснова.

Моя фамилия Шилов (2013). Всё о фильме: дата выхода, трейлеры, фото, актеры. Отзывы зрителей и профессиональные рецензии. Общие сборы и бюджет фильма. Интересные факты и ошибки в фильме.

Выпущено: Россия, 'ВайТ Медиа' Продолжительность: 01:31:17 Язык: Русский Качество: SATRip Видео: XviD, 1947 Кбит/с, 720x400 Аудио rus: AC3, 2 ch, 192 Кбит/с. Полное имя: D:Moja.familija.Shilov.2013.tahiy.avi Формат: AVI Формат/Информация: Audio Video Interleave Размер файла: 1,37 Гбайт Продолжительность: 1 ч. Общий поток: 2149 Кбит/сек Название фильма: Моя фамилия Шилов / 2013 - = Rip by tahiy = - Программа кодирования: VirtualDubMod 1.5.10.3 www.virtualdub-fr.org (build 2550/release) Видео Идентификатор: 0 Формат: MPEG-4 Visual Профиль формата: Advanced Параметр BVOP формата: 1 Параметр QPel формата: Нет Параметр GMC формата: Без точки перехода Параметр матрицы формата: Default (MPEG) Идентификатор кодека: XVID Идентификатор кодека/Подсказка: XviD Продолжительность: 1 ч.

Битрейт: 1947 Кбит/сек Ширина: 720 пикселей Высота: 400 пикселей Соотношение сторон: 16:9 Частота кадров: 25,000 кадров/сек Цветовое пространство: YUV Субдискретизация насыщенности: 4:2:0 Битовая глубина: 8 бит Тип развёртки: Прогрессивная Метод сжатия: С потерями Бит/(Пиксели*Кадры): 0. Скачать Игры Сега Одним Файлом. 270 Размер потока: 1,24 Гбайт (91%) Библиотека кодирования: XviD 1.2.1 (UTC 2008-12-04) Аудио Идентификатор: 1 Формат: AC-3 Формат/Информация: Audio Coding 3 Расширение режима: CM (complete main) Параметр Endianness формата: Big Идентификатор кодека: 2000 Продолжительность: 1 ч. Вид битрейта: Постоянный Битрейт: 192 Кбит/сек Каналы: 2 канала Расположение каналов: Front: L R Частота: 48,0 КГц Битовая глубина: 16 бит Метод сжатия: С потерями Размер потока: 125 Мбайт (9%) Выравнивание: Разделение по промежуткам Продолжительность промежутка: 40 мс.

(1,00 видеокадр) Время предзагрузки промежутка: 500 мс.

Роман Шилов – ответственный парень и главный борец с беззаконием. При этом ему предстоит доказывать свой профессионализм самыми и разными способами. Но после того как уволился, как оказалось он попросту не приспособлен к обычной жизни. Герой фильма «Моя фамилия Шилов» понял, что теперь у него много времени для себя. Он решает уделить внимание личной жизни, которой ранее не уделял вообще.

Но в тот момент, когда он отправился с Ксенией на встречу, случилось что-то со старым знакомым, и он не смог ни чего изменить. Теперь личные дела предстоит снова отложить в долгий ящик, ведь у него появилась работа.

    Search